房友友

 找回密码
 立即注册
查看: 1009|回复: 6

[【犯罪】] 【泰国黑帮】【BRRip-MKV/2.14G】【泰语中文字幕】【2012泰国动作片1280高清】

  [复制链接]
发表于 2013-9-8 17:33:22 | 显示全部楼层 |阅读模式

003cf49cd9540d39757d31511ae55a3f.jpg
◎译  名 泰国黑帮
◎片  名 TheGangster
◎年  代 2012
◎国  家 泰国
◎类  别 动作
◎语  言 泰语
◎字  幕 简繁
◎IMDB评分7.0/10 from 26 users
◎IMDB链接http://www.imdb.com/title/tt2587198
◎文件格式 X264 + AC3
◎视频尺寸 1280 x688
◎文件大小 1CD  GB
◎片  长 1h 54mn
◎导  演 KongkiatKhomsiri
◎主  演 Krisada Sukosol Clapp   
       Somchai Kemglad   
       Sakarin Suthamsamai   
       Krisada Supapprom   
       Pakchanok Wo-Onsri   
       WasuSangsingkaew   
       Boonsong Nakphoo   
       Nantharat Chaowarat   
       Libby Brien  ...  Woman interviewee / wife (voice)  
       PhilipHersh  ...  Jod (voice)



◎简  介 

    The Gangster (Antapal) is based on the notorious Bangkokian gangs ofthe1950s-60s. The story follows a newly released prisoner who desires tolivestraight, but - knowing nothing else but the life of a gangster -returns to hisold gang.
  1.       Format : Matroska
  2.       Format version : Version 4 / Version 2
  3.       File size : 2.14 GiB
  4.       Duration : 1h 54mn
  5.       Overall bit rate : 2 679 Kbps
  6.       Encoded date : UTC 2010-02-22 21:41:31
  7.       Writing application : mkvmerge v5.9.0 ('On The Loose') built on Dec  9 2012 15:37:01
  8.       Writing library : libebml v1.3.0 + libmatroska v1.4.0
  9.    Video #1
  10.       ID : 1
  11.       Format : AVC
  12.       Format/Info : Advanced Video Codec
  13.       Format profile : [email protected]
  14.       Format settings, CABAC : Yes
  15.       Format settings, ReFrames : 4 frames
  16.       Muxing mode : Header stripping
  17.       Codec ID : V_MPEG4/ISO/AVC
  18.       Duration : 1h 54mn
  19.       Bit rate : 2 500 Kbps
  20.       Width : 1 280 pixels
  21.       Height : 688 pixels
  22.       Display aspect ratio : 1.85:1
  23.       Frame rate : 23.976 fps
  24.       Color space : YUV
  25.       Chroma subsampling : 4:2:0
  26.       Bit depth : 8 bits
  27.       Scan type : Progressive
  28.       Bits/(Pixel*Frame) : 0.118
  29.       Stream size : 1.95 GiB (91%)
  30.       Writing library : x264 core 116 r2074 2641b9e
  31.       
  32.    Audio #2
  33.       ID : 2
  34.       Format : AC-3
  35.       Format/Info : Audio Coding 3
  36.       Mode extension : CM (complete main)
  37.       Format settings, Endianness : Big
  38.       Muxing mode : Header stripping
  39.       Codec ID : A_AC3
  40.       Duration : 1h 54mn
  41.       Bit rate mode : Constant
  42.       Bit rate : 192 Kbps
  43.       Channel(s) : 2 channels
  44.       Channel positions : Front: L R
  45.       Sampling rate : 48.0 KHz
  46.       Bit depth : 16 bits
  47.       Compression mode : Lossy
  48.       Stream size : 157 MiB (7%)
  49.       Default : Yes
  50.       Forced : No
  51.    Text #3
  52.       ID : 3
  53.       Format : VobSub
  54.       Muxing mode : zlib
  55.       Codec ID : S_VOBSUB
  56.       Codec ID/Info : The same subtitle format used on DVDs
  57.       Language : Chinese
  58.       Default : Yes
  59.       Forced : No
  60.    Text #4
  61.       ID : 4
  62.       Format : VobSub
  63.       Muxing mode : zlib
  64.       Codec ID : S_VOBSUB
  65.       Codec ID/Info : The same subtitle format used on DVDs
  66.       Language : Chinese
  67.       Default : No
  68.       Forced : No
复制代码
6dce420a1d7b8116446db7e99fed725b.jpg

96c69cf27ba4c8e43c98d767b1ff8fd4.jpg

d6041ee9142d837d9577b2057b87aad1.jpg

游客,如果您要查看本帖隐藏内容请回复



发表于 2013-9-13 00:06:24 | 显示全部楼层
谢谢分享,非常喜欢!下载了!
回复 支持 反对

使用道具 举报

发表于 2013-10-4 12:34:39 | 显示全部楼层
非常非常精彩的片片啊
回复 支持 反对

使用道具 举报

发表于 2013-10-4 19:53:33 | 显示全部楼层
下来看看你
回复 支持 反对

使用道具 举报

发表于 2013-10-5 23:22:53 | 显示全部楼层
封面真够股黑
回复 支持 反对

使用道具 举报

发表于 2018-11-29 16:04:29 | 显示全部楼层
11111111111111111111111111111111
回复 支持 反对

使用道具 举报

发表于 2018-12-30 12:12:57 | 显示全部楼层
看看隐藏的内容。。。
回复 支持 反对

使用道具 举报

您需要登录后才可以回帖 登录 | 立即注册

本版积分规则

QQ|小黑屋|手机版|Archiver|房友友

GMT+8, 2019-1-19 07:11 , Processed in 0.169694 second(s), 28 queries , Gzip On.

Powered by 龙网bt天堂 X3.4

© 官方网址: www.longbt.com

快速回复 返回顶部 返回列表