房友友

 找回密码
 立即注册
查看: 8140|回复: 249

[【港台】] 伍思凯-特别的爱给特别的你[经典老歌/115/30t/570M/1080P/ts/LongBT]

  [复制链接]
发表于 2011-7-2 20:48:21 | 显示全部楼层 |阅读模式
原盘网高清影视论坛LongBT

56687757201107021815214078614467156_002.jpg

56687757201107021815214078614467156_001.jpg

General
ID                               : 1 (0x1)
Complete name                    : D:\伍思凯-特别的爱给特别的你.ts
Format                           : MPEG-TS
File size                        : 570 MiB
Duration                         : 4mn 19s
Overall bit rate                 : 18.4 Mbps
Maximum Overall bit rate         : 35.5 Mbps

Video
ID                               : 4113 (0x1011)
Menu ID                          : 1 (0x1)
Format                           : MPEG Video
Format version                   : Version 2
Format profile                   : [email protected]
Format settings, BVOP            : Yes
Format settings, Matrix          : Default
Format settings, GOP             : M=3, N=12
Codec ID                         : 2
Duration                         : 4mn 19s
Bit rate mode                    : Variable
Bit rate                         : 17.5 Mbps
Width                            : 1 920 pixels
Height                           : 1 080 pixels
Display aspect ratio             : 16:9
Frame rate                       : 25.000 fps
Color space                      : YUV
Chroma subsampling               : 4:2:0
Bit depth                        : 8 bits
Scan type                        : Interlaced
Scan order                       : Top Field First
Compression mode                 : Lossy
Bits/(Pixel*Frame)               : 0.338
Stream size                      : 528 MiB (93%)

Audio
ID                               : 4352 (0x1100)
Menu ID                          : 1 (0x1)
Format                           : AC-3
Format/Info                      : Audio Coding 3
Mode extension                   : CM (complete main)
Codec ID                         : 129
Duration                         : 4mn 19s
Bit rate mode                    : Constant
Bit rate                         : 448 Kbps
Channel(s)                       : 2 channels
Channel positions                : Front: L R
Sampling rate                    : 48.0 KHz
Bit depth                        : 16 bits
Compression mode                 : Lossy
Delay relative to video          : -80ms
Stream size                      : 13.9 MiB (2%)


原盘网高清影视论坛LongBT提醒-影片下载地址:

游客,如果您要查看本帖隐藏内容请回复



本视频来自互联网,仅供LongBT网友测试交流使用,请在24小时内请自觉删除。
若喜欢本片,请支持购买正版!转载注明"原盘网高清影视论坛LongBT"。

发表于 2011-7-2 21:14:10 | 显示全部楼层
看看怎么样
发表于 2011-7-2 21:37:38 | 显示全部楼层
支持一下,顶,谢谢上传,狂顶
发表于 2011-7-3 05:41:29 | 显示全部楼层
发表于 2011-7-3 06:53:25 | 显示全部楼层
哦,下来看看     
发表于 2011-7-3 08:07:54 | 显示全部楼层
流使用,请在24小时内请自觉删
发表于 2011-7-3 14:39:24 | 显示全部楼层
顶顶更健康!
发表于 2011-7-3 18:49:34 | 显示全部楼层
经典老歌了,支持下
发表于 2011-7-3 23:39:26 | 显示全部楼层
hhhhhhhhhhhhhhh
发表于 2011-7-5 14:58:30 | 显示全部楼层
55555555555555555555
发表于 2011-7-6 08:11:09 | 显示全部楼层
感谢分享···················
发表于 2011-8-4 08:16:57 | 显示全部楼层
看看吧谢谢
发表于 2011-8-5 12:00:07 | 显示全部楼层
我收藏啦!谢谢 !
发表于 2011-8-10 10:29:52 | 显示全部楼层
是高清的吗?
发表于 2011-8-10 19:53:28 | 显示全部楼层
很久远很有张力的声音!不愧是专业歌手啊
发表于 2011-8-11 01:05:36 | 显示全部楼层
{:soso_e117:}{:soso_e102:}
发表于 2011-8-13 15:40:20 | 显示全部楼层
谢谢楼主分享!
发表于 2011-8-13 17:04:02 | 显示全部楼层
支持一下            
发表于 2011-8-18 22:12:45 | 显示全部楼层
{:soso_e100:} {:soso_e100:}
发表于 2011-8-19 08:51:23 | 显示全部楼层
good good good good good good
您需要登录后才可以回帖 登录 | 立即注册

本版积分规则

QQ|小黑屋|手机版|Archiver|房友友

GMT+8, 2019-3-23 01:21 , Processed in 0.202687 second(s), 24 queries , Gzip On.

Powered by 龙网bt天堂 X3.4

© 官方网址: www.longbt.com

快速回复 返回顶部 返回列表