房友友

 找回密码
 立即注册
查看: 2933|回复: 0

[种子下载] BBC鸟类的秘密生活[蓝光原盘]BBC-The.Secret.Life.of.Birds.2012.1080p.BluRay.AVC.DD.2.0-LongBT

  [复制链接]
发表于 2014-4-26 00:19:18 | 显示全部楼层 |阅读模式
0679a025dab2d7336250dea0f28f66d2.jpg

cd3112e0554e23b2691cab6ed78e2dba.jpg


◎译  名 鸟类的秘密生活
◎片  名 The Secret Life of Birds
◎年  代 2012
◎地  区 英国
◎类  别 纪录片
◎语  言 英语
◎IMDB评分  6.7/10 from 11 users
◎IMDB链接  http://www.imdb.com/title/tt2647790/
◎片  长 30mins × 5
◎制  片 Mill Creek Entertainment


◎简  介

  从遥远的海岸边,到我们居住的城市,在这个迷人的自然系列片中,BBC主持人和野生动物专家威廉姆斯将带您穿越威尔士,探寻居住在这片神奇土地上的各种鸟类。
  威廉姆斯带我们一起了解鸟类如何适应环境的变化,探究鸟类飞行的奥秘,发现隐藏在他们绚丽羽毛与美妙歌喉背后的故事。

  Take flight into an enchanting world

  Travelling from wild coastlines to urban habitats, this fascinating natural history series from the BBC explores the behaviour of birds, revealing all aspects of their lives, from surviving harsh winters and avoiding predators to living alongside us in towns and cities.

  Host and wildlife expert Iolo Williams discovers how birds have adapted to changing landscapes, studying their ability to fly and how their unique design, colour and camouflage enables them to live in many habitats, as well as uncovering their courtship and nesting rituals and finding out how and why they communicate. Offering a visual treat of stunning landscapes and captivating wildlife behaviour, The Secret Life of Birds provides perfect family entertainment – educating and enthralling in equal measure.


  Episode 1: Dawn Chorus (00:30:22)

  This film examines the early morning activities of birds. Featured is the "secret life of bird calls." Studied is the Welsh natural habitat in which the birds live, the effort to identify the birds through their sounds and calls, and bird calls to both mate and "mark their territory." Though most birds call for mates, the woodpecker drums. Also highlighted: the challenges faced by birds nesting in urban areas, birds living in areas without many suitable perches, warning calls, Raven and Grouse calls, and communication in large groups.

  Episode 2: Feathering the Nest (00:30:17)

  This episode highlights the varied mating rituals and family life of birds. Examined is the mating season physical changes of species, mating song, and mating displays of flight for species with poor song and little color. Also studied is the physical mating process, nest construction and location - including cliff nesting - the unending search for food, and feeding young.

  Episode 3: Living on the Edge (00:30:26)

  The chicks have hatched, and all seems well, until disaster - many types of disaster - often strikes. This film examines the threat of predators to newly-hatched chicks, how birds prevent their young from being eaten by predators, and how they defend themselves against the elements. Also: the effect of mild conditions fooling birds into mating at the wrong time of year, the benefits of springtime in Wales and the challenges of harsh winter conditions, feeding in both clear and inclement weather, the role of personal hygiene in survival, and autumn and wintertime migration.

  Episode 4: Living with Us (00:30:20)

  This film focuses on the life of birds as it is influenced by the presence of man. Examined is the necessary adaptation to co-exist side-by-side with people and other animals and birds' ability to take advantage of man's structures and materials, particularly discarded materials. Featured is the life of urban birds, the brilliant displays available to bird watchers thanks to a familiarity between the species, the replacement of cliffs by manmade structures as nesting spots, and feeding from human trash.

  Episode 5: Designed For a Welsh Life (00:30:37)

  The final feature examines how species have adapted to Wales, regardless of natural design. Studied is the purpose and usage of the beak, various types and uses of feet, taking advantage of the natural geography and resources available, the unique Jay which uses color and song as both an attractant and a repellant, a bird's natural camouflage, and varied uses for flight.
  1. DISC INFO:

  2. Disc Title:     THE SECRET LIFE OF BIRDS
  3. Disc Size:      23,432,275,520 bytes
  4. Protection:     AACS
  5. BD-Java:        No
  6. BDInfo:         0.5.8

  7. PLAYLIST REPORT:

  8. Name:                   00000.MPLS
  9. Length:                 0:30:22.487 (h:m:s.ms)
  10. Size:                   4,587,411,456 bytes
  11. Total Bitrate:          20.14 Mbps

  12. VIDEO:

  13. Codec                   Bitrate             Description     
  14. -----                   -------             -----------     
  15. MPEG-4 AVC Video        18998 kbps          1080p / 23.976 fps / 16:9 / High Profile 4.1

  16. AUDIO:

  17. Codec                           Language        Bitrate         Description     
  18. -----                           --------        -------         -----------     
  19. Dolby Digital Audio             English         192 kbps        2.0 / 48 kHz / 192 kbps / DN -4dB

  20. FILES:

  21. Name            Time In         Length          Size            Total Bitrate   
  22. ----            -------         ------          ----            -------------   
  23. 00002.M2TS      0:00:00.000     0:30:22.487     4,587,411,456   20,137         

  24. Name:                   00001.MPLS
  25. Length:                 0:30:17.398 (h:m:s.ms)
  26. Size:                   4,668,751,872 bytes
  27. Total Bitrate:          20.55 Mbps

  28. VIDEO:

  29. Codec                   Bitrate             Description     
  30. -----                   -------             -----------     
  31. MPEG-4 AVC Video        19395 kbps          1080p / 23.976 fps / 16:9 / High Profile 4.1

  32. AUDIO:

  33. Codec                           Language        Bitrate         Description     
  34. -----                           --------        -------         -----------     
  35. Dolby Digital Audio             English         192 kbps        2.0 / 48 kHz / 192 kbps / DN -4dB

  36. FILES:

  37. Name            Time In         Length          Size            Total Bitrate   
  38. ----            -------         ------          ----            -------------   
  39. 00003.M2TS      0:00:00.000     0:30:17.398     4,668,751,872   20,551         

  40. Name:                   00002.MPLS
  41. Length:                 0:30:26.783 (h:m:s.ms)
  42. Size:                   4,552,888,320 bytes
  43. Total Bitrate:          19.94 Mbps

  44. VIDEO:

  45. Codec                   Bitrate             Description     
  46. -----                   -------             -----------     
  47. MPEG-4 AVC Video        18808 kbps          1080p / 23.976 fps / 16:9 / High Profile 4.1

  48. AUDIO:

  49. Codec                           Language        Bitrate         Description     
  50. -----                           --------        -------         -----------     
  51. Dolby Digital Audio             English         192 kbps        2.0 / 48 kHz / 192 kbps / DN -4dB

  52. FILES:

  53. Name            Time In         Length          Size            Total Bitrate   
  54. ----            -------         ------          ----            -------------   
  55. 00004.M2TS      0:00:00.000     0:30:26.783     4,552,888,320   19,938         

  56. Name:                   00003.MPLS
  57. Length:                 0:30:20.527 (h:m:s.ms)
  58. Size:                   4,603,828,224 bytes
  59. Total Bitrate:          20.23 Mbps

  60. VIDEO:

  61. Codec                   Bitrate             Description     
  62. -----                   -------             -----------     
  63. MPEG-4 AVC Video        19088 kbps          1080p / 23.976 fps / 16:9 / High Profile 4.1

  64. AUDIO:

  65. Codec                           Language        Bitrate         Description     
  66. -----                           --------        -------         -----------     
  67. Dolby Digital Audio             English         192 kbps        2.0 / 48 kHz / 192 kbps / DN -4dB

  68. FILES:

  69. Name            Time In         Length          Size            Total Bitrate   
  70. ----            -------         ------          ----            -------------   
  71. 00005.M2TS      0:00:00.000     0:30:20.527     4,603,828,224   20,231         


  72. Name:                   00004.MPLS
  73. Length:                 0:30:37.961 (h:m:s.ms)
  74. Size:                   4,715,870,208 bytes
  75. Total Bitrate:          20.53 Mbps

  76. VIDEO:

  77. Codec                   Bitrate             Description     
  78. -----                   -------             -----------     
  79. MPEG-4 AVC Video        19371 kbps          1080p / 23.976 fps / 16:9 / High Profile 4.1

  80. AUDIO:

  81. Codec                           Language        Bitrate         Description     
  82. -----                           --------        -------         -----------     
  83. Dolby Digital Audio             English         192 kbps        2.0 / 48 kHz / 192 kbps / DN -4dB

  84. FILES:

  85. Name            Time In         Length          Size            Total Bitrate   
  86. ----            -------         ------          ----            -------------   
  87. 00006.M2TS      0:00:00.000     0:30:37.961     4,715,870,208   20,527     
复制代码
游客,如果您要查看本帖隐藏内容请回复

发表于 2014-5-1 14:33:44 | 显示全部楼层
2 韩国电影
回复

使用道具 举报

发表于 2014-7-8 01:53:15 | 显示全部楼层
谢谢楼主分享!
回复 支持 反对

使用道具 举报

发表于 2014-8-24 14:22:40 | 显示全部楼层
谢谢楼主分享
回复 支持 反对

使用道具 举报

发表于 2014-10-7 09:26:38 | 显示全部楼层
顶顶顶顶顶顶
回复 支持 反对

使用道具 举报

发表于 2014-10-9 17:16:33 | 显示全部楼层
zdxfvfdsVfsvcxfcbcfbfdvDFS
回复 支持 反对

使用道具 举报

发表于 2014-10-9 17:16:49 | 显示全部楼层
的方法到底发生
回复 支持 反对

使用道具 举报

发表于 2014-11-24 15:37:41 | 显示全部楼层
明明-貂蝉喷火爆乳战三国
回复 支持 反对

使用道具 举报

发表于 2014-12-28 14:44:38 | 显示全部楼层
谢谢楼主分享
回复 支持 反对

使用道具 举报

发表于 2015-2-22 18:52:48 | 显示全部楼层
BBC鸟类的秘密生活,这是不错哦
回复 支持 反对

使用道具 举报

发表于 2015-2-25 09:46:28 | 显示全部楼层
这个非常不错,可以给儿童看看,谢谢分享
回复 支持 反对

使用道具 举报

发表于 2015-2-25 09:56:02 | 显示全部楼层
!!!!!!!!!!!!!
回复

使用道具 举报

发表于 2015-3-7 09:29:05 | 显示全部楼层
111111111111111
回复 支持 反对

使用道具 举报

发表于 2015-4-2 11:10:20 | 显示全部楼层
鸟类秘密
回复

使用道具 举报

发表于 2015-4-5 16:40:50 | 显示全部楼层
KANKAN
回复

使用道具 举报

发表于 2015-4-5 21:07:25 | 显示全部楼层
haodongxi
回复

使用道具 举报

发表于 2016-3-13 10:08:58 | 显示全部楼层
感谢楼主分享!
回复 支持 反对

使用道具 举报

发表于 2016-3-13 10:16:05 | 显示全部楼层
找了很久的资源,谢谢
回复 支持 反对

使用道具 举报

发表于 2016-3-13 10:17:35 | 显示全部楼层
回复

使用道具 举报

发表于 2017-4-21 13:26:53 | 显示全部楼层
热爱大自然,珍惜野生动物,珍爱生命,与动物和谐相处。
回复 支持 反对

使用道具 举报

您需要登录后才可以回帖 登录 | 立即注册

本版积分规则

QQ|小黑屋|手机版|Archiver|房友友

GMT+8, 2019-3-27 07:35 , Processed in 0.173069 second(s), 28 queries , Gzip On.

Powered by 龙网bt天堂 X3.4

© 官方网址: www.longbt.com

快速回复 返回顶部 返回列表