房友友

 找回密码
 立即注册
查看: 16651|回复: 384

顶级肚皮舞Alicia.Machado.Belly.Dance.Mega.Tetas[115/30t/111M/HD1080P/wmv]-LongBT

  [复制链接]
发表于 2011-5-13 22:33:48 | 显示全部楼层 |阅读模式
原盘网高清影视论坛LongBT
56687757201105132140272226861166503_001.jpg
General
Complete name                    : E:\KuGou\顶级肚皮舞Alicia.Machado.Belly.Dance.Mega.Tetas.HD1080.wmv
Format                           : Windows Media
File size                        : 112 MiB
Duration                         : 1mn 15s
Overall bit rate mode            : Constant
Overall bit rate                 : 12.4 Mbps
Maximum Overall bit rate         : 12.3 Mbps
Encoded date                     : UTC 2011-03-22 11:39:19.604

Video
ID                               : 2
Format                           : VC-1
Format profile                   : [email protected]
Codec ID                         : WMV3
Codec ID/Info                    : Windows Media Video 9
Codec ID/Hint                    : WMV3
Description of the codec         : Windows Media Video 9 - Professional
Duration                         : 1mn 15s
Bit rate mode                    : Constant
Bit rate                         : 12.0 Mbps
Width                            : 1 920 pixels
Height                           : 1 080 pixels
Display aspect ratio             : 16:9
Frame rate                       : 29.970 fps
Bit depth                        : 8 bits
Scan type                        : Progressive
Compression mode                 : Lossy
Bits/(Pixel*Frame)               : 0.193
Stream size                      : 108 MiB (97%)
Language                         : Spanish (MX)

Audio
ID                               : 1
Format                           : WMA
Format version                   : Version 2
Codec ID                         : 161
Codec ID/Info                    : Windows Media Audio
Description of the codec         : Windows Media Audio 9.2 - 192 kbps, 48 kHz, stereo (A/V) 1-pass CBR
Duration                         : 1mn 15s
Bit rate mode                    : Constant
Bit rate                         : 192 Kbps
Channel(s)                       : 2 channels
Sampling rate                    : 48.0 KHz
Bit depth                        : 16 bits
Stream size                      : 1.73 MiB (2%)
Language                         : Spanish (MX)


原盘网高清影视论坛LongBT提醒-影片下载地址:

游客,如果您要查看本帖隐藏内容请回复



本视频来自互联网,仅供LongBT网友测试交流使用,请在24小时内请自觉删除。
若喜欢本片,请支持购买正版!转载注明"原盘网高清影视论坛LongBT"。
发表于 2011-5-13 22:39:25 | 显示全部楼层
哈哈…我是老板
发表于 2011-5-13 22:40:19 | 显示全部楼层
哈哈…我是老板
发表于 2011-5-14 17:23:12 | 显示全部楼层
请问厄泼如额外‘健康
发表于 2011-5-14 17:50:46 | 显示全部楼层
机高清影视论坛 › 官方论坛 › 【高清音乐MV下载】 › 参与/回复主题
发表于 2011-5-14 18:02:23 | 显示全部楼层
看高清就上手机高清影视论坛
发表于 2011-5-14 21:50:55 | 显示全部楼层
美极啦那么好看
发表于 2011-5-15 20:05:37 | 显示全部楼层
好贴,下来看看!感谢发帖
发表于 2011-5-16 20:06:40 | 显示全部楼层
好东西 下来看看 谢谢分享
发表于 2011-5-24 18:55:52 | 显示全部楼层
他骗我 我喜欢啊
发表于 2011-5-24 21:49:53 | 显示全部楼层
谢谢让我欣赏一下吧。。。。。。。。。。
发表于 2011-5-25 12:51:41 | 显示全部楼层
hhhhhhhhhhhhhh
发表于 2011-5-25 13:05:57 | 显示全部楼层
原盘网高清影视论坛LongBT
发表于 2011-5-25 13:51:35 | 显示全部楼层
经典了  值得下载来看看了
发表于 2011-5-29 17:22:49 | 显示全部楼层
美极啦那么好看
发表于 2011-5-30 11:53:44 | 显示全部楼层
哈哈…我是老板
发表于 2011-6-2 11:19:50 | 显示全部楼层
看看怎么样吧
发表于 2011-6-3 07:14:20 | 显示全部楼层
顶级肚皮舞Alicia.Machado.Belly.Dance.Mega.Tetas[
发表于 2011-6-3 07:22:46 | 显示全部楼层
顶级肚皮舞Alicia.Machado.Belly.Dance.Mega.Tetas
发表于 2011-6-5 09:15:16 | 显示全部楼层
好贴,感谢楼主
您需要登录后才可以回帖 登录 | 立即注册

本版积分规则

QQ|小黑屋|手机版|Archiver|房友友

GMT+8, 2019-1-22 11:13 , Processed in 0.178443 second(s), 24 queries , Gzip On.

Powered by 龙网bt天堂 X3.4

© 官方网址: www.longbt.com

快速回复 返回顶部 返回列表